Camp Commerce

The Big Short 2015 full movie download torrent

Download link

Thx ship

CM8 Get it right the first time

Source: Big THX DVD Screener m8

Comments:

DVD screen 15

We held this title until 1 week after theatrical release to give the film a chance to run within budget, we learned from our mistake

Stand:

We had no intention of commenting on recent events at all, but now we feel we should.

Sorry to disappoint M, but there was no hacking or anything like that. we got copies sold by a man on the street, no need to decode. we were certainly not the only ones.

cpl other movies were on the net days before, not ours

Therefore, we wanted to share these films with people who are not rich enough or are not able to see all the nominated films in the cinema.

Of course, these files do not represent movies as seen in the cinema

As stated in our no, support the producers and see all the films in theaters on the big screen as you should.

Producers need money from ticket sales to offset production costs.

Regarding the movie Hateful Eight:

We are sorry for the trouble we caused by releasing that great movie before cinematography had even begun.

we didn’t want to hurt anyone, we didn’t know it would become popular so quickly

The Hateful Eight is an excellent, exciting and entertaining western that combines great direction, a great cast, a wonderful script, beautiful photography and unforgettable music.

All these elements make The Hateful Eight an unforgettable film that is Quentin Tarantino at his best.

Since everyone is talking about this movie right now, we don’t think the producers will lose money on cinedate, and now we’re going to tell you why.

in fact we think this has created a new kind of media hype that is more present in the news, on the radio and in the papers than in star wars, and the promotional cost for it is free

If let’s say 5% of people plan to see this movie on a theater date, as a result of this media pressure we’ve inadvertently created, we now think 40% of people will see this movie in theaters

because everyone is talking about it and everyone wants to see the movie that created so much buzz.

this will surely increase the sales of cinema tickets.

we really hope that in the long run this has helped the manufacturers cover production costs and more

we also think the hated movie 8 is a top contender for the awards and will beat the others by a mile

thx tarantino for this great movie

I’m sorry that it was around Christmas, we didn’t plan that at all either, we won’t do another film until it’s in cinematography,

and we are certainly not going to 40 as we planned, we think we have already done enough.

cheers

coding:

the quality was good on this one.

turned out very nice

to enjoy

Video: 720×288 @bitrate 1400 2pass

Audio: English stereo AC3

Example: yes on

In general

Full name:

Format: AVI

Format/Information: Interleaved Audio Video

File size: GiB

Duration: 2 hours and 10 minutes

Total transmission speed: 1 668 Kbps

Writing Request: Nandub

Writing library: Nandub’s construction in 1853/edition

Video

ID: 0

Format: MPEG-4 Visual

Profile Format: Advanced

format settings, BVP:2

Format settings, QPel: Yes

Format settings, CMC: no warp points

Format Settings, Matrix: Default ()

Muxing mode: packed bitstream

Codec ID: XVID

Codec ID/Hint: XviD

Duration: 2 hours and 10 minutes

Bit rate: 1 401 Kbps

Width: 720 pixels

Height:288 pixels

Screen aspect ratio:

Number of frames per second: fps

Color space: YUV

Chroma subsampling: 4:2:0

Bit depth: 8 bits

Scan type: Progressive

Compression method: lossy

Bits / (pixels * frame):

Stream size: GiB (84%)

Writing library: XviD (UTC 2008-12-04)

Sound

ID: 1

Format: AC-3

Format/information: audio encoding 3

Extension method: CM (complete head)

Format settings, Endianness: Large

Codec ID: 2000

Duration: 2 hours and 10 minutes

Bitrate mode: constant

Transmission speed: 256 Kbps

Channel(s): 2 channels

Duct Location: Front: L R

Sampling frequency: KHz

Bit depth: 16 bits

Compression method: lossy

Stream size: 238 MiB (15%)

Alignment: divided by interleaves

Interval length: 33 ms (video frame)

Interleave, prepayment length: 500 ms

Screens

Story

Four outsiders in the world of finance predicted the credit and housing bubble

In the fall of the mid-2000s, the big banks decided to crack down on them for their lack of foresight and greed.

Form

Ryan Gosling… Jared Vennett

Christian Bale … Michael Burry

Steve Carell…Mark Baum

Marisa Tomei … Cynthia Baum

Brad Pitt…Ben Rickert

Selena Gomez … Selena Gomez

32 1 Torrent vote
Download uTorrent Download uTorrent

  • The Big Short 2015 Clean Audio full torrent download
  • The Big Short 2015 English Brooklyn FastDL Full Movie Download Torrent
  • The Big Short 2015 Pirate Full Movie Download Torrent

Leave a Comment

Your email address will not be published. Required fields are marked *